<?xml version="1.0" standalone="no"?>
<!DOCTYPE svg PUBLIC "-//W3C//DTD SVG 1.1//EN" "http://www.w3.org/Graphics/SVG/1.1/DTD/svg11.dtd" >
<svg xmlns="http://www.w3.org/2000/svg">
<metadata>Generated by IcoMoon</metadata>
<defs>
<font id="icomoon" horiz-adv-x="1024">
<font-face units-per-em="1024" ascent="960" descent="-64" />
<missing-glyph horiz-adv-x="1024" />
<glyph unicode="&#x20;" horiz-adv-x="512" d="" />
<glyph unicode="&#xe900;" glyph-name="twitter-bird" d="M1005.739 749.511c-28.276-41.81-62.481-77.119-101.875-105.717l-1.208-0.835q0.626-11.833 0.626-26.681c-0.412-120.781-36.886-232.961-99.208-326.433l1.359 2.167c-33.793-51.364-72.828-95.57-117.257-133.665l-0.844-0.707c-46.787-39.301-101.56-70.997-161.296-92.214l-3.682-1.14c-60.068-22.068-129.431-34.833-201.776-34.833-1.583 0-3.165 0.006-4.745 0.018l0.242-0.001c-1.042-0.007-2.275-0.011-3.509-0.011-116.199 0-224.341 34.493-314.747 93.798l2.181-1.343c14.723-1.768 31.82-2.8 49.148-2.844h0.060c1.144-0.012 2.497-0.018 3.851-0.018 95.845 0 183.905 33.332 253.221 89.036l-0.787-0.612c-45.346 0.499-86.978 15.998-120.269 41.758l0.461-0.343c-33.902 25.277-59.35 60.197-72.417 100.68l-0.4 1.435c11.76-2.38 25.278-3.742 39.114-3.742 19.236 0 37.856 2.633 55.521 7.558l-1.451-0.345c-48.098 9.396-89.098 34.834-118.157 70.409l-0.286 0.361c-29.266 34.507-47.062 79.546-47.062 128.742 0 0.859 0.005 1.717 0.016 2.574l-0.001-0.13v2.56c26.942-15.283 59.007-24.675 93.179-25.65l0.289-0.007c-28.023 18.748-50.668 43.412-66.537 72.323l-0.535 1.063c-15.579 27.917-24.752 61.245-24.752 96.715 0 0.499 0.002 0.997 0.005 1.494v-0.076c-0.002 0.311-0.003 0.679-0.003 1.048 0 37.825 10.358 73.231 28.392 103.536l-0.514-0.932c51.177-62.59 113.765-113.73 184.877-150.749l3.255-1.542c68.85-36.302 149.869-59.252 235.837-63.27l1.276-0.047c-3.567 14.096-5.639 30.289-5.689 46.958v0.032c-0.013 0.832-0.020 1.813-0.020 2.797 0 56.122 23.259 106.811 60.663 142.955l0.057 0.055c37.364 37.383 88.992 60.506 146.020 60.506 59.284 0 112.732-24.989 150.386-65.008l0.099-0.106c49.35 9.913 93.188 27.303 132.687 51.152l-1.843-1.032c-15.2-48.905-47.291-88.774-89.302-113.669l-0.924-0.507c43.98 5.302 84.030 16.721 121.156 33.476l-2.599-1.049z" />
<glyph unicode="&#xe901;" glyph-name="Trac-387" d="M885.069 410.999l-367.082 367.082-384.042-384.042c-24.659-24.659-64.638-24.659-89.297 0s-24.659 64.638 0 89.297v0l431.999 431.999c24.659 24.659 64.638 24.659 89.297 0v0c0.289-0.289 0.546-0.546 0.835-0.835s0.546-0.546 0.835-0.835l410.060-410.060c0.373-0.353 0.807-0.775 1.236-1.204 25.581-25.581 25.581-67.057 0-92.638s-67.057-25.581-92.638 0c-0.429 0.429-0.851 0.862-1.265 1.3l0.061-0.064z" />
<glyph unicode="&#xe902;" glyph-name="shopping-cart-outline-badged" d="M412.558 10.695c0-39.808-32.271-72.078-72.078-72.078s-72.078 32.271-72.078 72.078c0 39.808 32.271 72.078 72.078 72.078v0c39.808 0 72.078-32.271 72.078-72.078v0zM850.375 10.695c0-39.808-32.271-72.078-72.078-72.078s-72.078 32.271-72.078 72.078c0 39.808 32.271 72.078 72.078 72.078v0c39.808 0 72.078-32.271 72.078-72.078v0zM636.416 739.385c-1.427 9.623-2.242 20.731-2.242 32.028s0.815 22.405 2.389 33.267l-0.147-1.238h-354.873l20.821-64.057zM874.382 531.172h-13.426l-39.822-176.356h-480.654l-146.375 463.644c-3.29 9.999-11.094 17.69-20.936 20.76l-0.227 0.061-131.3 40.391c-2.825 0.899-6.074 1.417-9.444 1.417-17.765 0-32.166-14.401-32.166-32.166 0-14.395 9.456-26.581 22.495-30.687l0.228-0.062 114.972-35.214 147.001-464.441-52.508-42.894-4.153-4.153c-12.933-14.877-20.817-34.443-20.817-55.851 0-19.994 6.876-38.382 18.393-52.928l-0.136 0.178c16.272-19.686 40.694-32.135 68.024-32.135 1.526 0 3.043 0.039 4.55 0.116l-0.211-0.009h534.756c17.689 0 32.028 14.34 32.028 32.028s-14.34 32.028-32.028 32.028h-539.876c-11.527 0.404-20.719 9.846-20.719 21.435 0 3.896 1.039 7.549 2.854 10.697l-0.055-0.104 77.198 64.057h494.478c0.234-0.006 0.509-0.010 0.784-0.010 15.192 0 27.913 10.577 31.202 24.768l0.042 0.216 50.29 221.298c-16.156-3.869-34.706-6.088-53.774-6.088-0.235 0-0.47 0-0.706 0.001h0.037zM1034.524 771.413c0-88.444-71.698-160.142-160.142-160.142s-160.142 71.698-160.142 160.142c0 88.444 71.698 160.142 160.142 160.142v0c88.444 0 160.142-71.698 160.142-160.142v0z" />
<glyph unicode="&#xe903;" glyph-name="share" d="M798.515 297.062c-57.786-0.3-109.225-27.219-142.718-69.112l-0.283-0.367-268.698 167.987c4.686 14.544 7.387 31.277 7.387 48.64s-2.701 34.096-7.706 49.8l0.319-1.16 268.698 167.731c33.968-41.707 85.32-68.131 142.843-68.131 101.514 0 183.808 82.294 183.808 183.808s-82.294 183.808-183.808 183.808c-101.514 0-183.808-82.294-183.808-183.808 0-0.474 0.002-0.947 0.005-1.42v0.073c0.195-17.374 2.876-34.049 7.702-49.785l-0.329 1.247-268.595-167.885c-33.965 42.493-85.793 69.478-143.924 69.478-101.514 0-183.808-82.294-183.808-183.808s82.294-183.808 183.808-183.808c58.131 0 109.959 26.985 143.641 69.112l0.283 0.367 268.698-167.987c-4.497-14.489-7.178-31.164-7.372-48.435l-0.001-0.102c0-101.514 82.294-183.808 183.808-183.808s183.808 82.294 183.808 183.808c0 101.514-82.294 183.808-183.808 183.808v0zM798.515 885.197c60.82-0.117 110.080-49.448 110.080-110.285 0-60.909-49.376-110.285-110.285-110.285s-110.285 49.376-110.285 110.285c0 0.036 0 0.072 0 0.108v-0.006c0 60.909 49.376 110.285 110.285 110.285v0zM210.33 333.926c-60.909 0-110.285 49.376-110.285 110.285s49.376 110.285 110.285 110.285c60.909 0 110.285-49.376 110.285-110.285v0c0-60.909-49.376-110.285-110.285-110.285v0zM798.464 3.072c-60.909 0-110.285 49.376-110.285 110.285s49.376 110.285 110.285 110.285c60.909 0 110.285-49.376 110.285-110.285v0c0-60.909-49.376-110.285-110.285-110.285v0z" />
<glyph unicode="&#xe904;" glyph-name="rfi-logo" d="M0 448v-512h1024v1024h-1024v-512zM564.245 792.816c0-27.167-14.629-41.796-39.706-41.796-43.886 0-64.784-39.706-64.784-117.029 0-39.706 10.449-50.155 52.245-50.155 37.616 0 52.245-10.449 52.245-41.796s-14.629-41.796-52.245-41.796h-52.245v-438.857h-106.58l6.269 342.727c6.269 303.020 10.449 346.906 45.976 386.612 54.335 58.514 158.824 60.604 158.824 2.090zM898.612 751.020v-83.592h-250.776v167.184h250.776v-83.592zM313.469 575.478c0-14.629-18.808-33.437-41.796-39.706-64.784-16.718-104.49-140.016-104.49-317.649 0-89.861-8.359-156.735-20.898-156.735s-20.898 100.31-20.898 261.224c0 160.914 8.359 261.224 20.898 261.224s20.898-20.898 20.898-45.976c0-39.706 4.18-41.796 27.167-12.539 20.898 27.167 91.951 75.233 114.939 79.412 2.090 0 4.18-12.539 4.18-29.257zM898.612 322.612v-261.224h-250.776v522.449h250.776v-261.224z" />
<glyph unicode="&#xe905;" glyph-name="rangeIcon" d="M833.901 252.832h-125.212v55.762h125.212q2.028 0 4.055-1.014 1.521-0.507 3.042-2.028t2.028-3.042q1.014-2.028 1.014-4.055v-35.485q0-2.028-1.014-4.055-0.507-1.521-2.028-3.042t-3.042-2.028q-2.028-1.014-4.055-1.014zM611.865 252.832h-396.42q-2.028 0-4.055 1.014-1.521 0.507-3.042 2.028t-2.028 3.042q-1.014 2.028-1.014 4.055v35.485q0 2.028 1.014 4.055 0.507 1.521 2.028 3.042t3.042 2.028q2.028 1.014 4.055 1.014h396.42zM620.99 336.475c0 15.208 12.673 27.881 27.881 27.881s27.881-12.673 27.881-27.881v-111.525c0-15.208-12.673-27.881-27.881-27.881s-27.881 12.673-27.881 27.881zM215.446 475.881h125.212v-55.762h-125.212q-2.028 0-4.055 1.014-1.521 0.507-3.042 2.028t-2.028 3.042q-1.014 2.028-1.014 4.055v35.485q0 2.028 1.014 4.055 0.507 1.521 2.028 3.042t3.042 2.028q2.028 1.014 4.055 1.014zM437.481 475.881h396.42q2.028 0 4.055-1.014 1.521-0.507 3.042-2.028t2.028-3.042q1.014-2.028 1.014-4.055v-35.485q0-2.028-1.014-4.055-0.507-1.521-2.028-3.042t-3.042-2.028q-2.028-1.014-4.055-1.014h-396.42zM428.356 392.238c0-15.208-12.673-27.881-27.881-27.881s-27.881 12.673-27.881 27.881v111.525c0 15.208 12.673 27.881 27.881 27.881s27.881-12.673 27.881-27.881zM833.901 587.406h-125.212v55.762h125.212q2.028 0 4.055-1.014 1.521-0.507 3.042-2.028t2.028-3.042q1.014-2.028 1.014-4.055v-35.485q0-2.028-1.014-4.055-0.507-1.521-2.028-3.042t-3.042-2.028q-2.028-1.014-4.055-1.014zM611.865 587.406h-396.42q-2.028 0-4.055 1.014-1.521 0.507-3.042 2.028t-2.028 3.042q-1.014 2.028-1.014 4.055v35.485q0 2.028 1.014 4.055 0.507 1.521 2.028 3.042t3.042 2.028q2.028 1.014 4.055 1.014h396.42zM620.99 671.050c0 15.208 12.673 27.881 27.881 27.881s27.881-12.673 27.881-27.881v-111.525c0-15.208-12.673-27.881-27.881-27.881s-27.881 12.673-27.881 27.881z" />
<glyph unicode="&#xe906;" glyph-name="playlist-add" d="M521.421 657.408h484.198v-74.496h-484.198zM335.206 415.334h670.413v-74.496h-670.413zM335.206 173.21h670.413v-74.496h-670.413zM372.48 657.306h-148.992v149.094h-74.496v-149.094h-148.992v-74.496h148.992v-148.992h74.496v148.992h148.992z" />
<glyph unicode="&#xe907;" glyph-name="play" d="M68.267 893.986c0 0.034 0 0.074 0 0.114 0 11.672 2.852 22.679 7.898 32.359l-0.184-0.388c9.938 20.161 30.344 33.788 53.933 33.788 11.145 0 21.579-3.042 30.518-8.34l-0.277 0.152 744.789-440.661c10.262-6.214 18.449-14.927 23.862-25.315l0.168-0.353c4.984-9.244 7.913-20.231 7.913-31.902 0-24.236-12.629-45.522-31.666-57.636l-0.277-0.165-744.789-440.661c-8.58-5.205-18.944-8.297-30.028-8.329h-0.009c-34.426 1.195-61.879 29.391-61.879 63.998 0 0.685 0.011 1.367 0.032 2.047l-0.002-0.099z" />
<glyph unicode="&#xe908;" glyph-name="menu" d="M0 755.405c0 28.164 22.831 50.995 50.995 50.995v0h917.777c28.164 0 50.995-22.831 50.995-50.995s-22.831-50.995-50.995-50.995h-917.777c-28.164 0-50.995 22.831-50.995 50.995v0zM0 447.829c0 28.164 22.831 50.995 50.995 50.995v0h917.777c28.164 0 50.995-22.831 50.995-50.995s-22.831-50.995-50.995-50.995h-917.777c-28.164 0-50.995 22.831-50.995 50.995v0zM34.953 191.283c-19.319 0-34.953-22.938-34.953-50.995s15.633-50.995 34.953-50.995h628.873c19.285 0 34.953 22.835 34.953 50.995s-15.633 50.995-34.953 50.995z" />
<glyph unicode="&#xe909;" glyph-name="magic" d="M1024 846.234l-113.766 113.766-910.234-910.234 113.766-113.766zM455.117 846.234l-56.883 113.766-56.883-113.766-113.818-56.883 113.766-56.883 56.883-113.766 56.883 113.766 113.766 56.883zM910.234 277.35l-56.883 113.766-56.883-113.766-113.766-56.883 113.766-56.883 56.883-113.766 56.883 113.766 113.766 56.883zM967.117 618.701l-56.883-56.883 56.883-56.883 56.883 56.832zM170.65 561.766l-56.883-56.883 56.883-56.883 56.883 56.883z" />
<glyph unicode="&#xe90a;" glyph-name="iconMusic" d="M971.214 959.978l-677.662-109.909v-618.111c-10.727 6.727-23.107 12.325-36.24 16.155l-1.048 0.262c-12.201 3.462-26.213 5.452-40.691 5.452-0.536 0-1.072-0.003-1.606-0.008l0.082 0.001c-0.669 0.011-1.46 0.017-2.251 0.017-43.19 0-82.199-17.898-110.017-46.681l-0.042-0.044c-28.85-28.687-46.705-68.405-46.705-112.293s17.855-83.606 46.698-112.286l0.007-0.007c27.883-28.827 66.913-46.723 110.123-46.723 0.769 0 1.536 0.006 2.303 0.017l-0.116-0.001c0.643-0.010 1.401-0.015 2.161-0.015 43.218 0 82.256 17.896 110.108 46.681l0.040 0.042c28.827 27.893 46.723 66.932 46.723 110.151 0 0.759-0.006 1.517-0.017 2.273l0.001-0.114v596.232l518.529 91.637v-462.017c-10.714 6.707-23.077 12.303-36.187 16.151l-1.057 0.266c-12.266 3.461-26.353 5.451-40.904 5.451-0.475 0-0.949-0.002-1.423-0.006l0.073 0.001c-87.707-0.265-158.736-71.294-159.001-158.975v-0.025c0.265-87.707 71.294-158.736 158.975-159.001h0.025c87.707 0.265 158.736 71.294 159.001 158.975v617.414l0.121 0.039z" />
<glyph unicode="&#xe90b;" glyph-name="Icon-material-library-music" d="M921.6 960h-614.4c-56.489-0.163-102.237-45.912-102.4-102.385v-614.415c0.163-56.489 45.912-102.237 102.385-102.4h614.415c56.489 0.163 102.237 45.912 102.4 102.385v614.415c-0.163 56.489-45.912 102.237-102.385 102.4h-0.015zM819.2 704h-153.6v-281.6c0-70.692-57.308-128-128-128s-128 57.308-128 128c0 70.692 57.308 128 128 128v0c0.079 0 0.172 0 0.265 0 28.948 0 55.604-9.817 76.818-26.303l-0.283 0.212v282.092h204.8zM102.4 755.2h-102.4v-716.8c0.163-56.489 45.912-102.237 102.385-102.4h716.815v102.4h-716.8z" />
<glyph unicode="&#xe90d;" glyph-name="iconDisqCatalogue" d="M87.067 952.334c-30.665-10.952-52.569-29.022-68.997-56.95l-15.333-25.737v-844.389l16.428-26.832c10.404-16.428 26.832-32.856 43.26-43.26l26.832-16.428 410.695-1.643c461.621-1.643 444.098-2.738 485.168 37.784 40.522 41.070 39.427 23.547 37.784 485.168l-1.643 410.695-16.428 26.832c-10.404 16.428-26.832 32.856-43.26 43.26l-26.832 16.428-413.981 1.095c-329.104 1.095-417.814 0-433.694-6.024zM626.995 793.532c111.161-38.332 191.658-118.28 231.084-230.537 13.69-39.427 15.333-50.926 15.333-114.995s-1.643-75.568-15.333-114.995c-39.427-112.257-118.828-191.658-231.084-231.084-39.427-13.69-50.926-15.333-114.995-15.333-62.973 0-76.116 1.643-112.804 14.785-149.493 52.569-242.584 175.778-250.25 330.199-8.214 174.135 102.4 323.628 273.797 369.626 58.593 15.88 144.565 12.595 204.252-7.666zM458.336 601.874c-51.474-19.166-89.805-60.235-102.948-110.066-9.857-35.594-3.286-89.805 14.785-122.661 16.975-31.76 35.594-49.283 70.092-67.902 18.071-9.857 31.76-12.047 71.735-12.047 44.355 0 52.021 1.643 78.306 16.428 32.308 17.523 49.831 36.141 68.449 70.64 17.523 32.308 17.523 111.161 0 143.47-30.665 58.045-73.925 85.425-138.541 88.163-26.284 1.095-48.736-1.095-61.878-6.024zM536.642 472.642c13.142-13.142 14.237-36.689 1.643-50.379-19.713-21.904-61.878-4.381-61.878 25.737 0 7.666 4.928 18.618 10.952 24.642s16.975 10.952 24.642 10.952c7.666 0 18.618-4.928 24.642-10.952z" />
<glyph unicode="&#xe90e;" glyph-name="Icon-awesome-globe-americas" d="M511.982 960c-282.745-0.020-511.947-229.235-511.947-511.982 0-282.76 229.222-511.982 511.982-511.982s511.982 229.222 511.982 511.982v0c0 282.76-229.222 511.982-511.982 511.982-0.012 0-0.025 0-0.037 0h0.002zM681.88 221.746c-8.069-7.998-16.489-16.419-23.36-23.29-5.948-5.956-10.382-13.425-12.674-21.781l-0.081-0.346c-3.101-11.698-5.637-23.501-9.83-34.811l-35.903-96.717c-26.449-6.099-56.838-9.626-88.040-9.689h-0.044v56.374c-1.416 41.559-19.028 78.748-46.685 105.668l-0.035 0.034c-11.951 11.955-19.343 28.468-19.343 46.708 0 0.004 0 0.009 0 0.013v-0.001 66.345c0 0.039 0 0.085 0 0.131 0 24.666-13.561 46.164-33.635 57.446l-0.331 0.171c-29.667 16.419-71.877 39.356-100.769 53.908-24.918 12.752-46.386 27.696-65.571 45.109l-1.409 1.259c-13.95 12.627-26.231 26.665-36.755 42.003l-0.523 0.806c-19.379 28.434-50.913 75.189-71.419 105.701 43.22 94.45 117.924 168.276 210.412 209.298l2.647 1.048 49.574-24.664c4.302-2.195 9.382-3.481 14.763-3.481 18.238 0 33.025 14.772 33.049 33.004v23.115c14.555 2.539 31.894 4.381 49.519 5.117l0.83 0.028 58.418-58.418c5.975-5.98 9.671-14.238 9.671-23.36s-3.695-17.38-9.671-23.36v0l-9.689-9.654-21.352-21.352c-2.988-2.99-4.835-7.119-4.835-11.68s1.848-8.69 4.835-11.68l9.689-9.689c2.988-2.99 4.835-7.119 4.835-11.68s-1.848-8.69-4.835-11.68l-16.525-16.525c-2.989-2.983-7.115-4.827-11.672-4.827-0.009 0-0.018 0-0.027 0h-18.567c-0.002 0-0.005 0-0.007 0-4.482 0-8.546-1.788-11.518-4.689l-20.468-19.904c-3.095-3.007-5.016-7.208-5.016-11.858 0-2.69 0.643-5.229 1.783-7.474l-0.043 0.094 32.168-64.407c1.103-2.155 1.749-4.702 1.749-7.399 0-9.122-7.391-16.517-16.511-16.525h-11.628c-4.149 0.002-7.939 1.537-10.836 4.068l0.019-0.017-19.167 16.63c-5.768 5.032-13.363 8.099-21.674 8.099-3.729 0-7.313-0.617-10.657-1.756l0.233 0.069-64.337-21.457c-9.893-3.36-16.885-12.566-16.885-23.405 0-9.618 5.506-17.951 13.538-22.017l0.141-0.065 22.867-11.451c18.228-9.327 39.763-14.794 62.574-14.798h0.001c21.704 0 46.65-56.374 66.063-66.063h137.799c18.244-0.001 34.761-7.392 46.72-19.344l28.187-28.187c11.386-11.393 18.427-27.128 18.427-44.507 0-0.010 0-0.020 0-0.030v0.001c0-0.025 0-0.056 0-0.086 0-26.555-10.773-50.594-28.186-67.985l-0.001-0.001zM860.903 410.353c-12.243 3.128-22.415 10.49-29.097 20.4l-0.112 0.176-37.136 55.846c-5.239 7.715-8.365 17.234-8.365 27.482s3.126 19.768 8.476 27.655l-0.111-0.173 40.484 60.461c4.803 7.161 11.233 12.879 18.781 16.712l0.281 0.129 26.742 13.389c27.758-53.033 44.044-115.847 44.044-182.464 0-19.328-1.371-38.337-4.021-56.933l0.249 2.132z" />
<glyph unicode="&#xe90f;" glyph-name="Groupe-894" d="M918.078 895.241l41.072-41.072c35.779-35.779 35.779-93.787 0-129.566l-723.753-723.753c-35.779-35.779-93.787-35.779-129.566 0l-41.072 41.072c-35.779 35.779-35.779 93.787 0 129.566l723.753 723.753c35.779 35.779 93.787 35.779 129.566 0zM959.15 41.921l-41.072-41.072c-35.779-35.779-93.787-35.779-129.566 0l-723.753 723.753c-35.779 35.779-35.779 93.787 0 129.566l41.072 41.072c35.779 35.779 93.787 35.779 129.566 0l723.753-723.753c35.779-35.779 35.779-93.787 0-129.566z" />
<glyph unicode="&#xe910;" glyph-name="facebook" d="M380.814-45.739v472.178h-124.814v169.472h124.814v145.294c0 113.778 73.956 218.795 243.541 218.795 0.876 0.003 1.913 0.004 2.95 0.004 41.055 0 81.549-2.399 121.35-7.064l-4.833 0.461-3.982-158.663s-51.484 0.284-108.373 0.284c-61.212 0-71.054-28.444-71.054-75.093v-124.018h184.377l-7.964-169.756h-176.356v-472.178h-179.655z" />
<glyph unicode="&#xe911;" glyph-name="download" d="M139.492 39.367h758.158c1.049 0.072 2.274 0.114 3.509 0.114 29.911 0 54.158-24.247 54.158-54.158s-24.247-54.158-54.158-54.158c-1.235 0-2.459 0.041-3.673 0.123l0.165-0.009h-758.158c-28.362 1.897-50.65 25.368-50.65 54.044s22.287 52.147 50.485 54.036l0.165 0.009zM572.757 354.816l175.616 175.559 76.516-76.686-306.347-306.347-306.347 306.347 76.572 76.572 175.616-175.616v605.355h108.089v-605.184z" />
<glyph unicode="&#xe912;" d="M986.408 922.402c-22.441 23.201-53.853 37.605-88.63 37.605-0.623 0-1.245-0.005-1.866-0.014l0.094 0.001h-768.011c-0.533 0.008-1.162 0.013-1.792 0.013-34.755 0-66.145-14.405-88.527-37.57l-0.034-0.035c-23.23-22.451-37.653-53.888-37.653-88.693 0-0.601 0.004-1.201 0.013-1.8l-0.001 0.091v-768.011c-0.008-0.516-0.012-1.125-0.012-1.735 0-34.781 14.422-66.193 37.612-88.584l0.036-0.035c22.425-23.23 53.84-37.654 88.624-37.654 0.61 0 1.219 0.004 1.827 0.013l-0.092-0.001h768.011c70.591 0.245 127.75 57.404 127.994 127.971v768.034c0.008 0.527 0.013 1.149 0.013 1.772 0 34.777-14.404 66.189-37.571 88.597l-0.034 0.033z" />
<glyph unicode="&#xe913;" d="M511.978 284.018c0.186-0.001 0.406-0.001 0.625-0.001 90.205 0 163.331 73.126 163.331 163.331 0 0.22 0 0.44-0.001 0.659v-0.034c0.001 0.187 0.001 0.409 0.001 0.631 0 90.205-73.126 163.331-163.331 163.331-0.22 0-0.44 0-0.659-0.001h0.034c-0.187 0.001-0.409 0.001-0.631 0.001-90.205 0-163.331-73.126-163.331-163.331 0-0.222 0-0.444 0.001-0.665v0.034c-0.001-0.186-0.001-0.406-0.001-0.625 0-90.205 73.126-163.331 163.331-163.331 0.222 0 0.444 0 0.665 0.001h-0.034zM511.978 411.541c-19.429 0.398-35.027 16.242-35.027 35.729 0 19.736 16 35.736 35.736 35.736s35.736-16 35.736-35.736c0-9.869-4-18.803-10.468-25.27v0c-6.395-6.466-15.267-10.471-25.075-10.471-0.318 0-0.634 0.004-0.95 0.013l0.047-0.001zM511.978 83.626c-0.688-0.005-1.501-0.008-2.315-0.008-50.515 0-98.564 10.553-142.065 29.575l2.285-0.89c-87.567 37.642-155.935 106.008-192.674 191.213l-0.906 2.362c-18.132 41.216-28.685 89.266-28.685 139.78 0 0.814 0.003 1.628 0.008 2.44l-0.001-0.125c-0.005 0.689-0.008 1.504-0.008 2.32 0 50.514 10.553 98.564 29.575 142.064l-0.89-2.284c37.644 87.566 106.009 155.931 191.213 192.668l2.361 0.906c41.216 18.132 89.266 28.685 139.78 28.685 0.816 0 1.631-0.003 2.446-0.008l-0.125 0.001c0.688 0.005 1.501 0.008 2.315 0.008 50.515 0 98.564-10.553 142.065-29.575l-2.285 0.89c87.568-37.644 155.936-106.011 192.674-191.218l0.906-2.361c18.132-41.216 28.685-89.266 28.685-139.78 0-0.814-0.003-1.628-0.008-2.44l0.001 0.125c0.005-0.688 0.008-1.501 0.008-2.315 0-50.515-10.553-98.564-29.575-142.065l0.89 2.285c-37.644-87.568-106.011-155.936-191.218-192.674l-2.361-0.906c-41.216-18.132-89.266-28.685-139.78-28.685-0.814 0-1.628 0.003-2.44 0.008l0.125-0.001z" />
<glyph unicode="&#xe914;" glyph-name="disc" d="M512 587.658v0c77.131 0 139.658-62.527 139.658-139.658v0c0-77.131-62.527-139.658-139.658-139.658s-139.658 62.527-139.658 139.658c0 77.131 62.527 139.658 139.658 139.658zM465.427 448c0-25.721 20.851-46.573 46.573-46.573s46.573 20.851 46.573 46.573c0 25.721-20.851 46.573-46.573 46.573v0c-25.721 0-46.573-20.851-46.573-46.573v0zM186.171 448.060c0 179.917 145.852 325.769 325.769 325.769v0-93.085c-128.493-0.034-232.649-104.19-232.683-232.68v-0.004zM512 215.256c128.541 0 232.744 104.203 232.744 232.744v0h93.025c0-179.917-145.852-325.769-325.769-325.769v0zM512 960v0c282.77 0 512-229.23 512-512v0c0-282.77-229.23-512-512-512s-512 229.23-512 512c0 282.77 229.23 512 512 512zM93.085 448c0-231.36 187.554-418.915 418.915-418.915s418.915 187.554 418.915 418.915c0 231.36-187.554 418.915-418.915 418.915v0c-231.36 0-418.915-187.554-418.915-418.915v0z" />
</font>
</defs>
</svg>
